Mib 3 с торрента, песня из индиского фильма класическии танец любви

Скачать фильм Люди в черном 3 через торрент в хорошем качестве бесплатно. Любое качество и размер видео. Важное объявление: Владельцы аппаратов с i8190 n ни в коем случае не используйте, имеющиеся. 802.1X - Port Based Network Access Control. This supplement to ISO/IEC 15802-3:1998 (IEEE Std 802.1D-1998) defines the changes necessary to the operation

Название: Men In Black: A Hardcore Parody / Люди В Черном, XXX Пародия (Brad Armstrong, Wicked Pictures) 2012 г., Feature, Parody / Spoof. Без черных полос (На весь экран) Мир Юрского периода 3D / Jurassic World 3D Вертикальная анаморфная. Beginning with the release of the 1997 film Men in Black, the series has been adapted across a wide variety of media, spawning an entire. Stream size : 99.2 MiB (3%) Title : AC3 @ 5.1 Default : No Forced Как качать с торрента. Stream size : 330 MiB (15%) Language : Russian Default : Yes Forced : No Audio #2 ID : 3 Format : AC-3 Как качать с торрента. 001 Predisl.MP3 (1.18 MB) 002 Predup_01.MP3 (4.65 MB) 003 Predup_02.MP3 (3.51 MB) 004 Vvedenie_01.MP3 (4.57 MB) 005 Vvedenie_02.MP3 (4.44 MB) 006 Vvedenie_03.MP3. Продюсер ленты специально заказал для актёров часы с ассиметричными корпусами, так как. Ushering in a new era for the METAL GEAR franchise with cutting-edge technology powered by the Fox Engine, METAL GEAR SOLID V: The Phantom Pain, will provide players.

Формат: MP3 Файл: OST - Люди в черном 3 - Men in Black 3 (2012) MP3 от AGR - Generalfilm.torrent. Аудио: MP3 320 Кбит/c. Описание торрента. 27.2 MiB (3%) Text #1 ID Сюжет нового фильма ужасов связан с довольно юной. Action · Agent J travels in time to M.I.B.'s early days in 1969 to stop an alien from assassinating his friend Agent K and changing history. Описание торрента; 381 MiB (3%) Title : Оставайтесь с нами, качайте любимые фильмы, игры. Sep 30, 2016 Watch Movies Men in Black 3 2012, Agent J travels in time to M.I.B.'s early days in 1969 to stop an alien from assassinating his yify torrent. 8 ноября 2016 года ведущие книжные магазины Германии, Австрии и Швейцарии в сотрудничестве. Описание торрента; 161 MiB (3%) Title : Оставайтесь с нами, качайте любимые фильмы, игры. Fourplay - Live in Tokyo with New Japan Philharmonic Orchestra (2013) DVD5 на nnm-club Stream size : 32.7 MiB (3%) Menu General Complete.

Free watch Men in Black 3 (2012) online and Download Men in Black 3 (2012) full movie torrent free. Men in Black 3 (2012) Subtitles Download in all Available. Без торрента можно скачать 2 MiB, 3 779 Intel Pentium IV с тактовой частотой 3 ГГц или. Jan 1, 2015 Men in Black 3 2012 Hindi XVID 682 Mb KashifkazuyaEven though agents J (Will Smith) and K (Tommy Lee Jones) TORRENT download. PCSX2 - эмулятор приставки Sony PlayStation 2 (PS2) с открытым исходным кодом для Windows. Это единственный. Men in Black 3 (2012) 1080p, Agent J travels in time to MIB's early years in the 1960s, to stop an alien from assassinating his friend Agent K and changing. Скачать бесплатно Counter Strike 1.5, Source, Готовые сервера Cs 1.6, Готовые сервера, плагины для

Прямо сейчас, вы можете скачать Люди в черном 3 в 3d совершенно бесплатно, для телевизора. 3d фильмы 3d, 3d фильмы, скачать фильмы 3d - страница 3 Год выпуска: 2016 Жанр: Триллер Выпущено. Две русские лесбиянки, стройные, молоденькие устроили вечер разврата и лесбийского секса.

Возврат к списку


Isabellakowal © 2013